Baaghi 2 2018 HD 480p & 720p Hindi GOPISAHI

Posted by
http://inmovie.info/
Format                         : Matroska
Format version                 : Version 4 / Version 2
File size                      : 400mb,700 MiB
Duration                       : 2 h 23 min
Overall bit rate               : 690 kb/s
Movie name                     : Baaghi 2 2018 GOPISAHI
Video
Format                         : AVC
Codec ID                       : V_MPEG4/ISO/AVC
Duration                       : 2 h 23 min
Bit rate                       : 600 kb/s
Width                          : 1 280 pixels
Height                         : 540 pixels
Display aspect ratio           : 2.40:1
Frame rate mode                : Constant
Frame rate                     : 15.000 FPS
Stream size                    : 614 MiB (87%)
Title                          : GOPISAHI
Writing library                : x264 core 155 r2893 b00bcaf
Audio
Format                         : AAC
Duration                       : 2 h 23 min
Bit rate                       : 88.5 kb/s
Channel(s)                     : 6 channels
Channel positions              : Front: L C R, Side: L R, LFE
Sampling rate                  : 44.1 kHz
Frame rate                     : 43.066 FPS (1024 SPF)
Compression mode               : Lossy
Stream size                    : 90.6 MiB (13%)
Title                          : GOPISAHI
Language                       : Hindi

::::: Download Links:::::
::::400mb::::
Download From BDUpload
Download From Indishare
:::::700mb:::::
Download From Indishare
Download From BDupload