Laung Laachi 2018 DVD SCR Punjabi GOPISAHI

Posted by

Format : Matroska
Format version : Version 4 / Version 2
File size : 375 MiB
Duration : 2 h 12 min
Overall bit rate : 396 kb/s
Movie name : Laung Laachi 2018 GOPISAHI

Video
Format : AVC
Codec ID : V_MPEG4/ISO/AVC
Duration : 2 h 12 min
Bit rate : 300 kb/s
Width : 720 pixels
Height : 304 pixels
Display aspect ratio : 2.35:1
Frame rate mode : Constant
Frame rate : 29.970 (30000/1001) FPS
Stream size : 284 MiB (76%)
Title : GOPISAHI
Writing library : x264 core 155 r2893 b00bcaf

Audio
Format : AAC
Duration : 2 h 12 min
Bit rate : 93.6 kb/s
Channel(s) : 2 channels
Channel positions : Front: L R
Sampling rate : 44.1 kHz
Frame rate : 43.066 FPS (1024 SPF)
Compression mode : Lossy
Stream size : 88.6 MiB (24%)
Language : Panjabi


torrborder.gif

|| Free Download Via Resumeable Single Links|| 

https://linkshub.me/view/MkbCXYeWrN
https://linkshub.me/view/MkbCXYeWrN

https://bdupload.info/skxf6e7lzscd
https://bdupload.info/oxzfossu9ba2